Todd McFarlane's Spawn UNCUT 1997-1999 HBO DVDrip XviD

DOWNLOAD TORRENT DOWNLOAD DOWNLOAD ANONYMOUS

Posted by NmelessOne •83 on June 12, 2017 in Anime » Cartoons , verified torrent

Size: 4.6 GB , Seeds: 4 , Peers: 0 ( Updated September 19, 2017 - Refresh )

* Download via Magnet Link , * To download files you need a Bittorrent Client , * How to download torrents from Bit Torrent Scene?

Scrape History ( seeds + peers )

Internal Files

Spawn TAS
1x1 Burning Visions.avi   261.09 MB
1x2 Evil Intent.avi   265.71 MB
1x3 No Rest, No Peace.avi   264.92 MB
1x4 Dominoes.avi   265.41 MB
1x5 Souls in the Balance.avi   261.59 MB
1x6 End Games.avi   264.26 MB
2x1 Home, Bitter Home.avi   297.74 MB
2x2 Access Denied.avi   281.14 MB
2x3 Colors of Blood.avi   247.73 MB
2x4 Send in the KKKlowns.avi   223.51 MB
2x5 Death Blow.avi   243.97 MB
2x6 Hellzapoppin.avi   258.01 MB
3x1 The Mindkiller.avi   261 MB
3x2 Twitch Is Down.avi   261.68 MB
3x3 Seed of the Hellspawn.avi   265.85 MB
3x4 Hunter's Moon.avi   261.01 MB
3x5 Chasing the Serpent.avi   261.67 MB
3x6 Prophecy.avi   262.23 MB

Hash Code

46b5df4bca33a8543dc4e17c004cab8d05641642

Description

All three seasons. (High Quality)

---------------
* General *
---------------

Complete name : 1x1 Burning Visions.avi
Format : AVI
Format/Info : Audio Video Interleave
File size : 261 MiB
Duration : 27mn 41s
Overall bit rate : 1 318 Kbps
Writing application : Lavf55.43.100

-------------
* Video *
-------------

ID : 0
Format : xvid
Codec ID : xvid
Duration : 27mn 41s
Bit rate : 1 114 Kbps
Width : 704 pixels
Height : 528 pixels
Display aspect ratio : 4:3
Frame rate : 23.976 fps
Bits/(Pixel*Frame) : 0.125
Stream size : 221 MiB (84%)
Title : Todd McFarlane's Spawn S01E01

-------------
* Audio *
-------------

ID : 1
Format : MPEG Audio
Format version : Version 1
Format profile : Layer 3
Mode : Joint stereo
Codec ID : 55
Codec ID/Hint : MP3
Duration : 27mn 40s
Bit rate mode : Constant
Bit rate : 192 Kbps
Channel(s) : 2 channels
Sampling rate : 48.0 KHz
Compression mode : Lossy
Stream size : 38.0 MiB (15%)
Alignment : Aligned on interleaves
Interleave, duration : 24 ms (0.58 video frame)
Interleave, preload duration : 24 ms
Title : Anglais


Thanks goes to the original encoders/providers, D4KiD and AgentEncore.


Enjoy & Please Seed!

Trackers

Refresh Leechers : Updated September 19, 2017

1. http://tracker.nwps.ws:6969/announce

2. http://tracker.winglai.com/announce

3. http://fr33dom.h33t.com:3310/announce

4. http://exodus.desync.com:6969/announce

5. http://torrent.gresille.org/announce

6. http://tracker.trackerfix.com/announce

7. udp://tracker.btzoo.eu:80/announce

8. http://tracker.windsormetalbattery.com/announce

9. udp://10.rarbg.me:80/announce

10. udp://ipv4.tracker.harry.lu:80/announce

11. udp://tracker.ilibr.org:6969/announce

12. udp://tracker.zond.org:80/announce

13. http://torrent-tracker.ru/announce.php

14. http://bigfoot1942.sektori.org:6969/announce

15. http://tracker.best-torrents.net:6969/announce

16. http://announce.torrentsmd.com:6969/announce

17. udp://tracker.token.ro:80/announce

18. udp://tracker.coppersurfer.tk:80

19. http://tracker.thepiratebay.org/announce

20. udp://9.rarbg.com:2710/announce

21. udp://open.demonii.com:1337/announce

22. udp://tracker.ccc.de:80/announce

23. udp://tracker.istole.it:80/announce

24. udp://tracker.publicbt.com:80/announce

25. udp://tracker.openbittorrent.com:80/announce

26. udp://tracker.istole.it:80/announce

27. http://tracker.istole.it/announce

28. udp://tracker.publicbt.com:80/announce

29. http://tracker.publicbt.com/announce

30. http://bigfoot1942.sektori.org:6969/announce

31. udp://coppersurfer.tk:6969/announce

32. udp://tracker.leechers-paradise.org:6969/announce

33. udp://www.eddie4.nl:6969/announce

34. http://opensharing.org:2710/announce

35. udp://9.rarbg.me:2710/announce

36. udp://open.demonii.com:1337/announce

Comments

You must log in to add a comment.

Embed Code

Sharing Widget

Top Anime ( auto generated report )

FILENAME SIZE SEEDS PEERS ADDED UPD
[i] Card Captor Sakura S01e29-35[BDmux 1080p - H264 - Ita Jap Ac3 - Cartelli SoftSub Ita] 6.58 GB 13 7 5 days 4 days