Brain on Fire 2016 1080p WEB-DL DD5 1 H264-FGT

DOWNLOAD TORRENT DOWNLOAD DOWNLOAD ANONYMOUS

Posted by Lokioddin •2125 on June 5, 2017 in Movies » Drama , verified torrent

Size: 3.09 GB , Seeds: 107 , Peers: 7 ( Updated September 12, 2017 - Refresh )

* Download via Magnet Link , * To download files you need a Bittorrent Client , * How to download torrents from Bit Torrent Scene?

Scrape History ( seeds + peers )

Internal Files

Brain.on.Fire.2016.1080p.WEB-DL.DD5.1.H264-FGT
Brain.on.Fire.2016.1080p.WEB-DL.DD5.1.H264-FGT.mkv   3.09 GB
Brain.on.Fire.2016.1080p.WEB-DL.DD5.1.H264-FGT.nfo   3.75 KB
RARBG.txt   31 Byte

Hash Code

a7f479c4d72b2b3399b82ee5ea9cc5dcd5294f3a

Description

Brain.on.Fire.2016.1080p.WEB-DL.DD5.1.H264-FGT


SCREENSHOT

SCREENSHOT SCREENSHOT SCREENSHOT SCREENSHOT


http://imdb.com/title/tt3704700/

Video
ID : 1
Format : AVC
Format/Info : Advanced Video Codec
Format profile : High@L4
Format settings, CABAC : Yes
Format settings, ReFrames : 5 frames
Codec ID : V_MPEG4/ISO/AVC
Duration : 1h 28mn
Bit rate : 4 491 Kbps
Width : 1 920 pixels
Height : 802 pixels
Display aspect ratio : 2.40:1
Frame rate mode : Constant
Frame rate : 23.976 fps
Color space : YUV
Chroma subsampling : 4:2:0
Bit depth : 8 bits
Scan type : Progressive
Bits/(Pixel*Frame) : 0.122
Stream size : 2.79 GiB (90%)
Title : Brain.on.Fire.2016.1080p.WEB-DL.DD5.1.H264-FGT
Language : English


Audio
ID : 2
Format : AC-3
Format/Info : Audio Coding 3
Mode extension : CM (complete main)
Format settings, Endianness : Big
Codec ID : A_AC3
Duration : 1h 28mn
Bit rate mode : Constant
Bit rate : 384 Kbps
Channel(s) : 6 channels
Channel positions : Front: L C R, Side: L R, LFE
Sampling rate : 48.0 KHz
Frame rate : 31.250 fps (1536 spf)
Compression mode : Lossy
Stream size : 244 MiB (8%)
Title : Brain.on.Fire.2016.1080p.WEB-DL.DD5.1.H264-FGT
Language : English
Default : Yes
Forced : No

Trackers

Refresh Leechers : Updated September 12, 2017

1. http://tracker.trackerfix.com:80/announce

2. udp://9.rarbg.me:2710/announce

3. udp://9.rarbg.to:2710/announce

Comments

You must log in to add a comment.

Embed Code

Sharing Widget

Related torrents

FILENAME SIZE SEEDS PEERS ADDED UPD
[i] Brain.on.Fire.2016.HDRip.350MB 355.52 MB 3 0 4 months 1 month
[i] Brain on Fire (2016) 720p Web-DL x264 AAC - Downloadhub
posted by downloadhub in Movies - Drama
718.34 MB 1 2 4 months 1 month
[i] Brain on Fire 2016 720p WEBRIP AC3 X264 MutzNutz 2.4 GB 0 3 4 months 1 month

Top Movies ( auto generated report )

FILENAME SIZE SEEDS PEERS ADDED UPD
[i] A Family Man (2016) [720p] [YTS AG] 807.25 MB 1897 846 2 days 21 hours
[i] A Family Man (2016) [1080p] [YTS AG] 1.68 GB 1358 531 2 days 21 hours
[i] Annabelle 2 Creation 2017 BRScreener Spanish [Zonatorrent org] avi 1.81 GB 1213 770 1 day 11 hours
[i] Pressure (2015) [720p] [YTS AG] 678.41 MB 1116 412 2 days 21 hours
[i] Viceroy's House (2017) [720p] [YTS AG] 782.15 MB 1012 666 2 days 1 day
[i] Viceroy's House (2017) [1080p] [YTS AG] 1.62 GB 854 321 2 days 21 hours
[i] Pressure (2015) [1080p] [YTS AG] 1.4 GB 806 289 2 days 1 day
[i] Hâmonî (2015) [720p] [YTS AG] 884.87 MB 770 277 4 days 20 hours
[i] OtherLife 2017 HDRip XViD AC3-juggs 1.24 GB 750 416 2 days 21 hours
[i] Cars 3 2017 READNFO 1080p WEB-DL H264 AC3-EVO 3.34 GB 487 336 4 days 3 days